Скачать через торрент Два трамвая Фильм бесплатно в хорошем качестве torrent

Скачивайте на UnionPeer.org фильмы через торрент без регистрации. Новинки кино в хорошем качестве через торрент. На UnionPeer.org можно скачать через торрент фильмы 2014 и 2015 годов. Самые новые фильмы.

Скачать торрент Два трамвая бесплатно через .torrent фильм мультфильм сериал

Статистика раздачи
Размер:  66 MB   |    Зарегистрирован:  5 месяцев 2 дня   |    .torrent скачан:  24 раза   |   
Раздают:  1  
   
загрузка...
 
Автор Сообщение

Galfimbul

avatar Galfimbul


Два трамвая

Страна: Россия
Жанр: мультфильм
Продолжительность: 00:10:00
Год выпуска: 2016

Режиссёр: Светлана Андрианова

Композитор: Артём Фадеев

Описание: По мотивам стихотворения Осипа Мандельштама и на основе книжных иллюстраций Анны Десницкой.
История о том, как живут и работают два трамвая - трамвай-родитель и трамвай-ребёнок.

Доп. информация: Специальный приз жюри "за поэтичность" на Фестивале анимации в Суздале (2017)
Первая премия в анимационном конкурсе фестиваля "Лучезарный ангел" (2017)
Первое место в программе "Премьеры" Большого Фестиваля мультфильмов (2017)
Премия киноакадемии "Золотой орёл" за лучший анимационный фильм (2018)
Национальная кинопремия "Ника" за лучший анимационный фильм (2018)

Качество: WEBRip-AVC
Формат: MP4
Видео: 798 kbps, 1280х720 (16:9), 25.000 fps, AVC (High@L3.1)
Аудио: 126 kbps, 44.1 kHz, 2 channels, AAC (LC)
Субтитры: отсутствуют
GeneralComplete name : Два трамвая (2016).mp4Format : MPEG-4Format profile : Base Media / Version 2Codec ID : mp42File size : 66.3 MiBDuration : 10mn 0sOverall bit rate mode : VariableOverall bit rate : 927 KbpsEncoded date : UTC 2018-06-02 18:41:21Tagged date : UTC 2018-06-02 18:41:21gsst : 0gstd : 600096

VideoID : 1Format : AVCFormat/Info : Advanced Video CodecFormat profile : Main@L3.1Format settings, CABAC : YesFormat settings, ReFrames : 3 framesCodec ID : avc1Codec ID/Info : Advanced Video CodingDuration : 10mn 0sBit rate : 798 KbpsWidth : 1 280 pixelsHeight : 720 pixelsDisplay aspect ratio : 16:9Frame rate mode : ConstantFrame rate : 25.000 fpsColor space : YUVChroma subsampling : 4:2:0Bit depth : 8 bitsScan type : ProgressiveBits/(Pixel*Frame) : 0.035Stream size : 57.1 MiB (86%)Title : ISO Media file produced by Google Inc. Created on: 06/02/2018.Encoded date : UTC 2018-06-02 18:41:21Tagged date : UTC 2018-06-02 18:41:21Color primaries : BT.709Transfer characteristics : BT.709Matrix coefficients : BT.709

AudioID : 2Format : AACFormat/Info : Advanced Audio CodecFormat profile : LCCodec ID : 40Duration : 10mn 0sBit rate mode : VariableBit rate : 126 KbpsChannel(s) : 2 channelsChannel positions : Front: L RSampling rate : 44.1 KHzCompression mode : LossyStream size : 8.98 MiB (14%)Title : ISO Media file produced by Google Inc. Created on: 06/02/2018.Language : EnglishEncoded date : UTC 2018-06-02 18:41:21Tagged date : UTC 2018-06-02 18:41:21


Трекер:  [ 11-Июн-2018 12:01 ]

  

Скачать .torrent

Размер .torrent файла 11 KB


Размер: 66 MB
Хэш (hash) релиза: 31637de3fe9a071ac81df663ed5715e396b6a226
Подписка на обновления:

Еще никто не оставлял запись к записи скачать торрент Два трамвая . Будь первым!

!Обратная связь