Скачать через торрент Лев Яшин – номер один Фильм бесплатно в хорошем качестве torrent

Скачивайте на UnionPeer.org фильмы через торрент без регистрации. Новинки кино в хорошем качестве через торрент. На UnionPeer.org можно скачать через торрент фильмы 2014 и 2015 годов. Самые новые фильмы.

Скачать торрент Лев Яшин – номер один бесплатно через .torrent фильм мультфильм сериал

Статистика раздачи
Размер:  748 MB   |    Зарегистрирован:  4 месяца 17 дней   |    .torrent скачан:  30 раз   |   
Раздают:  1  
   
загрузка...
 
Автор Сообщение

Galfimbul

avatar Galfimbul


Лев Яшин – номер один

Страна: Россия
Студия: Телеканал "Россия", ВГТРК, АНО "Продюсерский центр "Динамо", ООО "ВИБ-Фильм"
Жанр: Документальный, биография
Год выпуска: 2018
Продолжительность: 00:52:31
Режиссёр: Светлана Крапивина

Описание: Лев Яшин. Легенда советского футбола. Лучший вратарь ХХ века. Единственный из множества великолепных голкиперов, удостоенный престижнейшей награды – "Золотой мяч" лучшего футболиста Европы. Во всем мире его называли Черная пантера – за его всегда черную вратарскую форму, подвижность и акробатические прыжки, Черный паук или Черный осьминог – за его длинные, все достающие руки. На его долю выпали не только многочисленные победы и награды, но и очень драматичные повороты судьбы.

Доп. информация:
Автор релиза -
Источник для рипа - HDTV 1080i TS - моя запись с канала Россия-1 HD

Сэмпл: http://yadi.sk/i/qOI-1uRT3YMyQV



Рекламы нет!

Качество видео: HDTVRip
Формат видео: AVI

Видео: XviD, 720x400 (16:9), 25.000 fps, 1789 kbps, 0.248 bit/pixel
Аудио: Русский AC3, 48000 Гц, 2ch, 192 kbps
ОбщееПолное имя : D:\Лев.Яшин.номер.один.2018.HDTVRip-ylnian.aviФормат : AVIФормат/Информация : Audio Video InterleaveРазмер файла : 748 МбайтПродолжительность : 52 м. 31 с.Общий поток : 1991 Кбит/секПрограмма кодирования : VirtualDubMod 1.5.10.3 | www.virtualdub-fr.org || (build 2550/release)Библиотека кодирования : VirtualDubMod build 2550/release

ВидеоИдентификатор : 0Формат : MPEG-4 VisualПрофиль формата : Advanced Simple@L5Настройки формата : BVOP1Параметр BVOP формата : 1Параметр QPel формата : НетПараметр GMC формата : Без точки переходаПараметр матрицы формата : Default (MPEG)Идентификатор кодека : XVIDИдентификатор кодека/Подсказка : XviDПродолжительность : 52 м. 31 с.Битрейт : 1789 Кбит/секШирина : 720 пикселейВысота : 400 пикселейСоотношение сторон : 16:9Частота кадров : 25,000 кадров/секЦветовое пространство : YUVСубдискретизация насыщенности : 4:2:0Битовая глубина : 8 битТип развёртки : ПрогрессивнаяМетод сжатия : С потерямиБит/(Пиксели*Кадры) : 0.248Размер потока : 672 Мбайт (90%)Библиотека кодирования : XviD 67

АудиоИдентификатор : 1Формат : AC-3Формат/Информация : Audio Coding 3Идентификатор кодека : 2000Продолжительность : 52 м. 31 с.Вид битрейта : ПостоянныйБитрейт : 192 Кбит/секКаналы : 2 каналаРасположение каналов : Front: L RЧастота : 48,0 КГцЧастота кадров : 31,250 кадров/сек (1536 SPF)Битовая глубина : 16 битМетод сжатия : С потерямиРазмер потока : 72,1 Мбайт (10%)Выравнивание : Разделение по промежуткамПродолжительность промежутка : 40 мс. (1,00 видеокадр)Время предзагрузки промежутка : 500 мс.ServiceKind/String : Complete Main


Трекер:  [ 26-Июн-2018 15:42 ]

  

Скачать .torrent

Размер .torrent файла 15 KB


Размер: 748 MB
Хэш (hash) релиза: 73bf9acbc3a21a1240b7f5c270524861c55a4d01
Подписка на обновления:

Торренты, похожие на Лев Яшин – номер один скачать торрент

Форум Название Автор Размер S L Добавлен
Документальные фильмы и телепередачи ·%· Лев Яшин – номер один (Светлана Крапивина) [2018, Россия, Документальный, биография, HDTV 1080i] Galfimbul 24031002242.24 GB 0 0 1529904994

08:36

25-Июн-18

Еще никто не оставлял запись к записи скачать торрент Лев Яшин – номер один . Будь первым!

!Обратная связь