Скачать через торрент Спецотряд «Кобра» Alarm für Cobra 11 - Die Autobahnpolizei Фильм бесплатно в хорошем качестве torrent

Скачивайте на UnionPeer.org фильмы через торрент без регистрации. Новинки кино в хорошем качестве через торрент. На UnionPeer.org можно скачать через торрент фильмы 2014 и 2015 годов. Самые новые фильмы.

Скачать торрент Спецотряд «Кобра» Alarm für Cobra 11 - Die Autobahnpolizei бесплатно через .torrent фильм мультфильм сериал

Статистика раздачи
Размер:  6.66 GB   |    Зарегистрирован:  3 месяца 16 дней   |    .torrent скачан:  40 раз   |   
Раздают:  1  
   
загрузка...
 
Автор Сообщение

Galfimbul

avatar Galfimbul


Спецотряд «Кобра» | Alarm fur Cobra 11 - Die Autobahnpolizei

Год выпуска: 2018
Страна: Германия
Жанр: боевик, драма, криминал
Продолжительность: ~00:45:00

Перевод: Любительский (двухголосый закадровый) ViruseProject

Режиссёр: Александр Дирбах, Нико Цавельберг, Хайнц Диц, Франко Тоцца

В ролях: Эрдоган Аталай, Винценц Кифер, Катя Войвуд, Готфрид Воллмер, Катрин Хесс, Карина Визе, Нильс Курфин, Даниэла Вутте и др.

Описание: Там, где по улицам разгуливает преступность и случаются транспортные столкновения, начинает действовать спецотряд "Кобра 11". Эти ребята превосходно знают свое дело и являются серьезной угрозой для тех, кто решил переступить через рамки закона. Их работа - расследовать криминальные дорожные происшествия. Схватки с вооруженными угонщиками, контрабандистами, наркодилерами и прочими "плохими парнями", погони на сверхвысоких скоростях, аварии и столкновения - таковы суровые будни дорожной полиции. Главным героям не раз приходится спасать человеческие жизни и искать выход из, казалось бы, безнадежных ситуаций. А иногда нужно здорово постараться, чтобы взять верх в погоне. Бесстрашные парни уверены, что виновных настигнет наказание, ведь оружие, отвага и смекалка всегда готовы к бою. Патрульные машины полицейских отряда "Кобра 11" днем и ночью в любую погоду на посту. Именно они в ответе за безопасность всех, кто в пути!

Качество: BDRip 720p
Формат: MKV
Видео: 1280 x 720 (16:9), ~3 000 Kbps, 25.000 fps, 8 bits
Аудио 1: 48 kHz, AC3 Dolby Digital, 2/0 (L,R) ch, ~192 kbps
Аудио 2: 48 kHz, AC3 Dolby Digital, 2/0 (L,R) ch, 384 kb/s
Субтитры: русские

Реклама: Отсутствует

General
Unique ID : 225302890692781430478616515045663744554 (0xA97FC224D026C80B9C7A7BCF31F0A22A)
Complete name : E:\Alarm.fuer.Cobra.11.S43E01.720p.BDRip.ViruseProject.mkv
Format : Matroska
Format version : Version 4 / Version 2
File size : 1.13 GiB
Duration : 45 min 10 s
Overall bit rate : 3 570 kb/s
Encoded date : UTC 2018-07-27 11:01:21
Writing application : mkvmerge v8.3.0 ('Over the Horizon') 64bit
Writing library : libebml v1.3.1 + libmatroska v1.4.2

Video
ID : 1
Format : AVC
Format/Info : Advanced Video Codec
Format profile : High@L4.1
Format settings, CABAC : Yes
Format settings, ReFrames : 5 frames
Codec ID : V_MPEG4/ISO/AVC
Duration : 45 min 8 s
Bit rate : 2 993 kb/s
Width : 1 280 pixels
Height : 720 pixels
Display aspect ratio : 16:9
Frame rate mode : Constant
Frame rate : 25.000 FPS
Color space : YUV
Chroma subsampling : 4:2:0
Bit depth : 8 bits
Scan type : Progressive
Bits/(Pixel*Frame) : 0.130
Stream size : 967 MiB (84%)
Writing library : x264 core 155 r2901 7d0ff22
Encoding settings : cabac=1 / ref=5 / deblock=1:-3:-3 / analyse=0x3:0x113 / me=umh / subme=7 / psy=1 / psy_rd=1.00:0.00 / mixed_ref=1 / me_range=16 / chroma_me=1 / trellis=1 / 8x8dct=1 / cqm=0 / deadzone=21,11 / fast_pskip=0 / chroma_qp_offset=-2 / threads=22 / lookahead_threads=3 / sliced_threads=0 / nr=0 / decimate=1 / interlaced=0 / bluray_compat=0 / constrained_intra=0 / bframes=3 / b_pyramid=2 / b_adapt=1 / b_bias=0 / direct=3 / weightb=1 / open_gop=0 / weightp=2 / keyint=250 / keyint_min=25 / scenecut=40 / intra_refresh=0 / rc_lookahead=40 / rc=crf / mbtree=1 / crf=20.0 / qcomp=0.60 / qpmin=0 / qpmax=69 / qpstep=4 / ip_ratio=1.40 / aq=1:1.00
Default : Yes
Forced : No

Audio #1
ID : 2
Format : AC-3
Format/Info : Audio Coding 3
Format settings, Endianness : Big
Codec ID : A_AC3
Duration : 45 min 10 s
Bit rate mode : Constant
Bit rate : 192 kb/s
Channel(s) : 2 channels
Channel positions : Front: L R
Sampling rate : 48.0 kHz
Frame rate : 31.250 FPS (1536 spf)
Bit depth : 16 bits
Compression mode : Lossy
Stream size : 62.0 MiB (5%)
Title : ViruseProject
Language : Russian
Service kind : Complete Main
Default : Yes
Forced : No

Audio #2
ID : 3
Format : AC-3
Format/Info : Audio Coding 3
Format settings, Endianness : Big
Codec ID : A_AC3
Duration : 45 min 8 s
Bit rate mode : Constant
Bit rate : 384 kb/s
Channel(s) : 2 channels
Channel positions : Front: L R
Sampling rate : 48.0 kHz
Frame rate : 31.250 FPS (1536 spf)
Bit depth : 16 bits
Compression mode : Lossy
Stream size : 124 MiB (11%)
Language : German
Service kind : Complete Main
Default : No
Forced : No

Text
ID : 4
Format : UTF-8
Codec ID : S_TEXT/UTF8
Codec ID/Info : UTF-8 Plain Text
Duration : 44 min 43 s
Bit rate : 82 b/s
Count of elements : 623
Stream size : 26.9 KiB (0%)
Title : ViruseProject
Language : Russian
Default : No
Forced : No
Предыдущие и альтернативные раздачи

Трекер:  [ 30-Июл-2018 08:48 ]

  

Скачать .torrent

Размер .torrent файла 34 KB


Размер: 6.66 GB
Хэш (hash) релиза: 6b10ea3bf5ed6cd437e5d55bdf3754b6054f197d
Подписка на обновления:

Торренты, похожие на Спецотряд «Кобра» Alarm für Cobra 11 - Die Autobahnpolizei скачать торрент

Форум Название Автор Размер S L Добавлен
Зарубежные сериалы ·%· Спецотряд «Кобра» / Alarm für Cobra 11 - Die Autobahnpolizei / Сезон: 43 / Серии: 1-6 из 6 (Александр Дирбах, Нико Цавельберг, Хайнц Диц, Франко Тоцца) [2018, Германия, боевик, драма, криминал, BDRip] DVO (ViruseProject) Galfimbul 36923351043.44 GB 0 0 1532931496

09:18

30-Июл-18

Еще никто не оставлял запись к записи скачать торрент Спецотряд «Кобра» Alarm für Cobra 11 - Die Autobahnpolizei . Будь первым!

!Обратная связь