Скачать через торрент Белый воротничок White Collar Фильм бесплатно в хорошем качестве torrent

Скачивайте на UnionPeer.org фильмы через торрент без регистрации. Новинки кино в хорошем качестве через торрент. На UnionPeer.org можно скачать через торрент фильмы 2014 и 2015 годов. Самые новые фильмы.

Скачать торрент Белый воротничок White Collar бесплатно через .torrent фильм мультфильм сериал

Статистика раздачи
Размер:  22.59 GB   |    Зарегистрирован:  3 месяца 15 дней   |    .torrent скачан:  34 раза   |   
Раздают:  1  
   
загрузка...
 
Автор Сообщение

Galfimbul

avatar Galfimbul


Белый воротничок / White Collar

Год выпуска: 2010-2011
Страна: США
Жанр: Детектив, криминал, драма, комедия
Продолжительность серии: ~00:43:00

Перевод: Профессиональный (многоголосый закадровый) Fox Life

Режиссёр: Джефф Истен / Jeff Eastin, Трэвис Ромеро / Travis Romero
В ролях: Мэтт Бомер, Тим ДиКей, Уилли Гарсон, Тиффани Тиссен, Шариф Аткинс, Марша Томасон, Хилари Бертон, Дайэнн Кэррол, Джеймс Ребхорн, Натали Моралес

Описание: Нил Кэффри, невероятно обаятельный преступный ум, наконец-то был пойман своим извечным врагом, агентом ФБР Питером Бёрком. Когда Нил бежит из тюрьмы, чтобы найти свою пропавшую любовь, Питер ловит его еще раз. Но Кэффри предлагает ему не торопиться с отправкой в тюрьму, и рассмотреть возможность сотрудничества. Ведь Нил мог бы помочь поймать самых «элитных» преступников, «белых воротничков» преступного мира. Питер, понимая, что интуиция и преступный опыт Нила, которых нет у законопослушного агента, могут стать хорошим подспорьем в борьбе с криминалом, соглашается.

Запись с ТВ: miha2154
Работа со звуком: shaimovserzh

Сэмпл
Предыдущие и альтернативные раздачи

Качество: WEB-DL 720p (Mixed)
Контейнер: MKV
Видео: MPEG-4 AVC, 1280x720 (16:9), 23.976 fps, ~4000 kbps
Аудио: AC3, 48 kHz, 2 ch, 192 kbps [Russian: Fox Life]
Аудио 2: AC3, 48 kHz, 6 ch, 384 kbps [English]
Субтитры: Отсутствуют
Реклама: Отсутствует
01. Переломный момент / Withdrawal
02. Необходимость знать / Need to Know
03. Подражатель Кэффри / Copycat Caffrey
04. Детективная история / By the Book
05. Незаконченное дело / Unfinished business
06. Должник / In the red
07. Дилемма заключенного / Prisoner's dilemma
08. Преданный сотрудник / Company man
09. Прямой наводкой / Point Blank
10. Семерка Берка / Burke's Seven
11. Поддельные облигации / Forging Bonds
12. Что случилось в Бирме / What Happens in Burma
13. Контрмеры / Countermeasures
14. Расплата / Payback
15. Силовое преимущество / Power Play
16. Вне поля зрения / Under the Radar
GeneralUnique ID : 250939830185853902821884157286760760617 (0xBCC940D98AEF603AEC747E4B0366C529)Complete name : W:\White.Collar.S02.720p.WEB-DL.Rus.Eng\White.Collar.S02E01.720p.WEB-DL.Eng.mkvFormat : MatroskaFormat version : Version 4 / Version 2File size : 1.49 GiBDuration : 49 min 3 sOverall bit rate : 4 336 kb/sEncoded date : UTC 2018-07-31 05:45:23Writing application : mkvmerge v25.0.0 ('Prog Noir') 64-bitWriting library : libebml v1.3.6 + libmatroska v1.4.9

VideoID : 1Format : AVCFormat/Info : Advanced Video CodecFormat profile : High@L3.1Format settings, CABAC : NoFormat settings, ReFrames : 2 framesFormat settings, GOP : N=1Codec ID : V_MPEG4/ISO/AVCDuration : 49 min 3 sBit rate : 3 950 kb/sWidth : 1 280 pixelsHeight : 720 pixelsDisplay aspect ratio : 16:9Frame rate mode : ConstantFrame rate : 23.976 (23976/1000) FPSColor space : YUVChroma subsampling : 4:2:0Bit depth : 8 bitsScan type : ProgressiveBits/(Pixel*Frame) : 0.179Stream size : 1.35 GiB (91%)Language : EnglishDefault : YesForced : NoColor range : LimitedColor primaries : BT.709Transfer characteristics : BT.709Matrix coefficients : BT.709

AudioID : 2Format : AC-3Format/Info : Audio Coding 3Format settings, Endianness : BigCodec ID : A_AC3Duration : 49 min 3 sBit rate mode : ConstantBit rate : 384 kb/sChannel(s) : 6 channelsChannel positions : Front: L C R, Side: L R, LFESampling rate : 48.0 kHzFrame rate : 31.250 FPS (1536 spf)Bit depth : 16 bitsCompression mode : LossyStream size : 135 MiB (9%)Language : EnglishService kind : Complete MainDefault : YesForced : No


Трекер:  [ 31-Июл-2018 10:48 ]

  

Скачать .torrent

Размер .torrent файла 227 KB


Размер: 22.59 GB
Хэш (hash) релиза: fd5e8f9fcd76d1d307ee83e4e95a2f07cc1c10f7
Подписка на обновления:

Еще никто не оставлял запись к записи скачать торрент Белый воротничок White Collar . Будь первым!

!Обратная связь