Скачать через торрент Платформа 45 Rig 45 Фильм бесплатно в хорошем качестве torrent

Скачивайте на UnionPeer.org фильмы через торрент без регистрации. Новинки кино в хорошем качестве через торрент. На UnionPeer.org можно скачать через торрент фильмы 2014 и 2015 годов. Самые новые фильмы.

Скачать торрент Платформа 45 Rig 45 бесплатно через .torrent фильм мультфильм сериал

Статистика раздачи
Размер:  6.56 GB   |    Зарегистрирован:  3 месяца 18 дней   |    .torrent скачан:  206 раз   |   
Раздают:  1  
   
загрузка...
 
Автор Сообщение

Galfimbul

avatar Galfimbul


Платформа 45 | Rig 45

Год выпуска: 2018
Страна: Швеция
Жанр: триллер
Продолжительность: ~00:44:00

Перевод: Любительский (двухголосый закадровый) ViruseProject

Режиссёр: Пер Ханефьорд
В ролях: Бьёрн Бенгтссон, Давид Денсик, Лиза Хенни, Кристиан Хильборг, Джои Йоханнссон, Она Каму, Гари Льюис, Сёрен Маллинг, Конор Маллен, Якоб Офтебро и др.

Описание: Андреа (Кэтрин Уокер), специалист по оценке ущерба из компании Benthos Oil, за два дня до Рождества вынуждена отправиться на нефтяную платформу №45, чтобы расследовать несчастный случай со смертельным исходом. Андреа обнаруживает, что члены экипажа неохотно идут на контакт и явно что-то скрывают. Вскоре разражается шторм, связь с материком потеряна, и становится ясно, что это не несчастный случай, а убийство. И убийца - один из членов экипажа. Но кто?

Качество: WEB-DL 1080p
Контейнер: MKV
Видео: 1920 x 1080 (16:9), ~7 200 Kbps, 25.000 fps, 8 bits
Аудио 1: AC3, 48 kHz, 2 ch, 192 kbps
Аудио 2: AC3, 48 kHz, 6 ch, 384 kb/s
Субтитры: русские, датские, шведские, финские, норвежские

Реклама: Отсутствует

Внимание! Раздача ведётся путём добавления новых серий; при каждом добавлении создаётся новый торрент. Чтобы начать докачку новой серии, пользователям необходимо сделать следующее:
(1) остановить скачивание,
(2) удалить старый торрент у себя из клиента (старые серии удалять не надо),
(3) скачать новый торрент и запустить его у себя в клиенте вместо старого, при этом указать клиенту путь в старую папку куда и должно происходить скачивание новых серий.

Eсли вы уже удалили старые серии, то предотвратить повторную закачку старых серий можно, отжав галочку в соответствующих местах при запуске нового торрента. По возможности, желательно не удалять старые серии как можно дольше чтобы релизёр не столько продолжал раздавать старые серии, а смог сконцентрироваться на новых.
General
Unique ID : 252189961648730399646189460756128591587 (0xBDBA0516F1215E7E929ED890C7A3EEE3)
Complete name : E:\ОЗВУЧКА\777ЗАЛИВ777\Rig.45.S01.ViruseProject\Rig.45.S01.1080p.ViruseProject\Rig.45.S01E01.1080p.WEB-DL.ViruseProject.mkv
Format : Matroska
Format version : Version 4 / Version 2
File size : 1.64 GiB
Duration : 44 min 8 s
Overall bit rate mode : Variable
Overall bit rate : 5 318 kb/s
Encoded date : UTC 2018-07-30 15:44:16
Writing application : mkvmerge v8.3.0 ('Over the Horizon') 64bit
Writing library : libebml v1.3.1 + libmatroska v1.4.2

Video
ID : 1
Format : AVC
Format/Info : Advanced Video Codec
Format profile : High@L4.1
Format settings, CABAC : Yes
Format settings, ReFrames : 2 frames
Codec ID : V_MPEG4/ISO/AVC
Duration : 44 min 7 s
Bit rate mode : Variable
Bit rate : 4 741 kb/s
Maximum bit rate : 7 200 kb/s
Width : 1 920 pixels
Height : 1 080 pixels
Display aspect ratio : 16:9
Frame rate mode : Constant
Frame rate : 25.000 FPS
Color space : YUV
Chroma subsampling : 4:2:0
Bit depth : 8 bits
Scan type : Progressive
Bits/(Pixel*Frame) : 0.091
Stream size : 1.46 GiB (89%)
Default : Yes
Forced : No

Audio #1
ID : 2
Format : AC-3
Format/Info : Audio Coding 3
Format settings, Endianness : Big
Codec ID : A_AC3
Duration : 44 min 8 s
Bit rate mode : Constant
Bit rate : 192 kb/s
Channel(s) : 2 channels
Channel positions : Front: L R
Sampling rate : 48.0 kHz
Frame rate : 31.250 FPS (1536 spf)
Bit depth : 16 bits
Compression mode : Lossy
Stream size : 60.6 MiB (4%)
Title : ViruseProject
Language : Russian
Service kind : Complete Main
Default : Yes
Forced : No

Audio #2
ID : 3
Format : AC-3
Format/Info : Audio Coding 3
Format settings, Endianness : Big
Codec ID : A_AC3
Duration : 44 min 7 s
Bit rate mode : Constant
Bit rate : 384 kb/s
Channel(s) : 6 channels
Channel positions : Front: L C R, Side: L R, LFE
Sampling rate : 48.0 kHz
Frame rate : 31.250 FPS (1536 spf)
Bit depth : 16 bits
Compression mode : Lossy
Stream size : 121 MiB (7%)
Title : AC-3 5.1
Language : English
Service kind : Complete Main
Default : No
Forced : No

Text #1
ID : 4
Format : UTF-8
Codec ID : S_TEXT/UTF8
Codec ID/Info : UTF-8 Plain Text
Duration : 42 min 1 s
Bit rate : 79 b/s
Count of elements : 518
Stream size : 24.5 KiB (0%)
Language : Russian
Default : No
Forced : No

Text #2
ID : 5
Format : UTF-8
Codec ID : S_TEXT/UTF8
Codec ID/Info : UTF-8 Plain Text
Duration : 41 min 59 s
Bit rate : 44 b/s
Count of elements : 360
Stream size : 13.6 KiB (0%)
Language : Danish
Default : No
Forced : No

Text #3
ID : 6
Format : UTF-8
Codec ID : S_TEXT/UTF8
Codec ID/Info : UTF-8 Plain Text
Duration : 42 min 1 s
Bit rate : 42 b/s
Count of elements : 400
Stream size : 13.2 KiB (0%)
Language : Norwegian
Default : No
Forced : No

Text #4
ID : 7
Format : UTF-8
Codec ID : S_TEXT/UTF8
Codec ID/Info : UTF-8 Plain Text
Duration : 42 min 5 s
Bit rate : 45 b/s
Count of elements : 371
Stream size : 14.0 KiB (0%)
Language : Swedish
Default : No
Forced : No

Text #5
ID : 8
Format : UTF-8
Codec ID : S_TEXT/UTF8
Codec ID/Info : UTF-8 Plain Text
Duration : 43 min 0 s
Bit rate : 47 b/s
Count of elements : 372
Stream size : 15.0 KiB (0%)
Language : Finnish
Default : No
Forced : No
[b]Предыдущие и альтернативные раздачи

Трекер:  [ 02-Авг-2018 08:48 ]

  

Скачать .torrent

Размер .torrent файла 33 KB


Размер: 6.56 GB
Хэш (hash) релиза: fa84b2f6327f4194706b30ce58bfa7cf380894e0
Подписка на обновления:

Еще никто не оставлял запись к записи скачать торрент Платформа 45 Rig 45 . Будь первым!

!Обратная связь