Скачать через торрент Московские тайны. Гостья из прошлого Серии: 1-2 из 2 Фильм бесплатно в хорошем качестве torrent

Скачивайте на UnionPeer.org фильмы через торрент без регистрации. Новинки кино в хорошем качестве через торрент. На UnionPeer.org можно скачать через торрент фильмы 2014 и 2015 годов. Самые новые фильмы.

Скачать торрент Московские тайны. Гостья из прошлого Серии: 1-2 из 2 бесплатно через .torrent фильм мультфильм сериал

Статистика раздачи
Размер:  1.25 GB   |    Зарегистрирован:  1 месяц 9 дней   |    .torrent скачан:  150 раз   |   
Раздают:  1  
   
загрузка...
 
Автор Сообщение

aleksan55

avatar aleksan55


Московские тайны. Гостья из прошлого

Год выпуска: 2018
Страна: Россия | Приор Продакшн
Жанр:детектив, криминал
Продолжительность: 00:46:00
Субтитры: нет
Режиссёр: Александр Баршак
В ролях:Анна Старшенбаум,Константин Соловьев,Евгений Пронин,Александр Комиссаров,Александр Баршак,Иван Жвакин,Владислав Ветров,Александр Робак,Екатерина Семенова,Алексей Лонгин
Описание:
"Московские тайны" – цикл фильмов режиссёра Александра Баршака. "Гостья из прошлого" - первый фильм детективного проекта.Молодая москвичка Настя Вяземская после трагической гибели жениха переквалифицировалась из историка в сотрудницу Следственного комитета. Как ни странно, её первое образование очень помогает ей на новой работе. Так, например, ей предстоит расследовать убийство, произошедшее в Голосовом овраге, что в Коломенском парке. Об этом месте ходят страшные легенды. И кому как не историку разбираться в старых тайнах…

Качество: SATRip-AVC
Формат: MKV
Видео кодек: H.264
Аудио кодек: AC3
Видео: MPEG4 Video (H264), 720x400, 25fps,1700 Kbps,bit/pixel 0.236
Аудио : AC3 48000Hz, stereo, 192 kbps,2 ch
Общее
Уникальный идентификатор : 193799261845425759872159826196312457813 (0x91CC615216B7E27692D67950B3018255)
Полное имя : F:\Московские тайны\01 серия_Московские тайны. Гостья из прошлого_rip by_Aleksan55.mkv
Формат : Matroska
Версия формата : Version 2
Размер файла : 635 Мбайт
Продолжительность : 46 м. 52 с.
Общий поток : 1894 Кбит/сек
Дата кодирования : UTC 2018-10-05 13:41:28
Программа кодирования : mkvmerge v7.8.0 ('River Man') 32bit built on Apr 3 2015 12:11:22
Библиотека кодирования : libebml v1.3.1 + libmatroska v1.4.2

Видео
Идентификатор : 1
Формат : AVC
Формат/Информация : Advanced Video Codec
Профиль формата : High@L4.1
Параметр CABAC формата : Да
Параметр ReFrames формата : 14 кадров
Идентификатор кодека : V_MPEG4/ISO/AVC
Продолжительность : 46 м. 52 с.
Битрейт : 1700 Кбит/сек
Ширина : 720 пикселей
Высота : 400 пикселей
Соотношение сторон : 16:9
Режим частоты кадров : Постоянный
Частота кадров : 25,000 кадров/сек
Цветовое пространство : YUV
Субдискретизация насыщенности : 4:2:0
Битовая глубина : 8 бит
Тип развёртки : Прогрессивная
Бит/(Пиксели*Кадры) : 0.236
Размер потока : 558 Мбайт (88%)
Библиотека кодирования : x264 core 146 r2538 121396c
Настройки программы : cabac=1 / ref=14 / deblock=1:-1:-1 / analyse=0x3:0x133 / me=umh / subme=9 / psy=1 / psy_rd=0.90:0.15 / mixed_ref=0 / me_range=32 / chroma_me=1 / trellis=2 / 8x8dct=1 / cqm=0 / deadzone=21,11 / fast_pskip=1 / chroma_qp_offset=-3 / threads=12 / lookahead_threads=1 / sliced_threads=0 / nr=0 / decimate=0 / interlaced=0 / bluray_compat=0 / constrained_intra=0 / bframes=14 / b_pyramid=2 / b_adapt=1 / b_bias=0 / direct=3 / weightb=1 / open_gop=0 / weightp=2 / keyint=250 / keyint_min=25 / scenecut=40 / intra_refresh=0 / rc_lookahead=40 / rc=2pass / mbtree=1 / bitrate=1700 / ratetol=1.0 / qcomp=0.60 / qpmin=0 / qpmax=39 / qpstep=4 / cplxblur=20.0 / qblur=0.5 / ip_ratio=1.40 / aq=1:1.00
Default : Да
Forced : Нет
Цветовой диапазон : Limited
Основные цвета : BT.601 PAL
Характеристики трансфера : BT.470 System B, BT.470 System G
Коэффициенты матрицы : BT.601

Аудио
Идентификатор : 2
Формат : AC-3
Формат/Информация : Audio Coding 3
Расширение режима : CM (complete main)
Параметр Endianness формата : Big
Идентификатор кодека : A_AC3
Продолжительность : 46 м. 52 с.
Вид битрейта : Постоянный
Битрейт : 192 Кбит/сек
Каналы : 2 канала
Расположение каналов : Front: L R
Частота : 48,0 КГц
Частота кадров : 31,250 кадров/сек (1536 spf)
Битовая глубина : 16 бит
Метод сжатия : С потерями
Размер потока : 64,4 Мбайт (10%)
Default : Да
Forced : Нет


Трекер:  [ 05-Окт-2018 19:05 ]

  

Скачать .torrent

Размер .torrent файла 13 KB


Размер: 1.25 GB
Хэш (hash) релиза: ebe84b68de04915204176a05e037a39c0cad3a89
Подписка на обновления:

Еще никто не оставлял запись к записи скачать торрент Московские тайны. Гостья из прошлого Серии: 1-2 из 2 . Будь первым!

!Обратная связь