Скачать через торрент Великий уравнитель 2 The Equalizer 2 Фильм бесплатно в хорошем качестве torrent

Скачивайте на UnionPeer.org фильмы через торрент без регистрации. Новинки кино в хорошем качестве через торрент. На UnionPeer.org можно скачать через торрент фильмы 2014 и 2015 годов. Самые новые фильмы.

Скачать торрент Великий уравнитель 2 The Equalizer 2 бесплатно через .torrent фильм мультфильм сериал

Статистика раздачи
Размер:  4.48 GB   |    Зарегистрирован:  13 дней   |    .torrent скачан:  667 раз   |   
Раздают:  1  
   
загрузка...
 
Автор Сообщение

Galfimbul

avatar Galfimbul


Великий уравнитель 2 /The Equalizer 2

Год выхода: 2018
Жанр: Боевик, триллер, криминал
Режиссер: Антуан Фукуа
В ролях: Педро Паскаль, Дензел Вашингтон, Билл Пуллман, Мелисса Лео, Джонатан Скарф, Сакина Джэффри, Кэролайн Дэй, Орсон Бин, Хайди Гарроу, Эштон Сандерс



О фильме: Продолжение истории Роберта Маккола, бывшего агента ЦРУ, который самостоятельно вершит правосудие.

Страна: США
Студия: Columbia Pictures, Escape Artists, Fuqua Films
Продолжительность: 02:01:12
Перевод: Дублированный | iTunes

Качество: WEB-DL 1080p
Видео: MPEG-4 AVC, 1920x796, 4518 Kbit/s, 23.976 fps
Звук:
Аудио #01: 48 kHz, AC3, 5.1, 384 Kbps | iTunes | RUS |
Аудио #02: 48 kHz, AC3, 5.1, 384 Kbps | Оригинал | ENG |
Субтитры: Русские (Forced, full), украинские (Full), английские

General
Unique ID : 98332049396435052539790764160742624945 (0x49FA1057FC59B8D661146930E1388EB1)
Complete name : D:Video111The.Equalizer.2.2018.1080p.WEB-DL.TeamHD.mkv
Format : Matroska
Format version : Version 4
File size : 4.48 GiB
Duration : 2 h 1 min
Overall bit rate : 5 287 kb/s
Movie name : The Equalizer 2 2018 TeamHD-селезень
Encoded date : UTC 2018-10-30 18:32:00
Writing application : mkvmerge v28.0.0 ('Voice In My Head') 64-bit
Writing library : libebml v1.3.6 + libmatroska v1.4.9

Video
ID : 1
Format : AVC
Format/Info : Advanced Video Codec
Format profile : High@L4
Format settings : CABAC / 5 Ref Frames
Format settings, CABAC : Yes
Format settings, ReFrames : 5 frames
Codec ID : V_MPEG4/ISO/AVC
Duration : 2 h 1 min
Bit rate : 4 518 kb/s
Width : 1 920 pixels
Height : 796 pixels
Display aspect ratio : 2.40:1
Frame rate mode : Constant
Frame rate : 23.976 FPS
Color space : YUV
Chroma subsampling : 4:2:0
Bit depth : 8 bits
Scan type : Progressive
Bits/(Pixel*Frame) : 0.123
Stream size : 3.82 GiB (85%)
Language : English
Default : Yes
Forced : No
Color range : Limited
Color primaries : BT.709
Transfer characteristics : BT.709
Matrix coefficients : BT.709

Audio #1
ID : 2
Format : AC-3
Format/Info : Audio Coding 3
Commercial name : Dolby Digital
Codec ID : A_AC3
Duration : 2 h 0 min
Bit rate mode : Constant
Bit rate : 384 kb/s
Channel(s) : 6 channels
Channel layout : L R C LFE Ls Rs
Sampling rate : 48.0 kHz
Frame rate : 31.250 FPS (1536 SPF)
Bit depth : 16 bits
Compression mode : Lossy
Stream size : 332 MiB (7%)
Title : iTunes
Language : Russian
Service kind : Complete Main
Default : Yes
Forced : Yes

Audio #2
ID : 3
Format : AC-3
Format/Info : Audio Coding 3
Commercial name : Dolby Digital
Codec ID : A_AC3
Duration : 2 h 0 min
Bit rate mode : Constant
Bit rate : 384 kb/s
Channel(s) : 6 channels
Channel layout : L R C LFE Ls Rs
Sampling rate : 48.0 kHz
Frame rate : 31.250 FPS (1536 SPF)
Bit depth : 16 bits
Compression mode : Lossy
Stream size : 332 MiB (7%)
Title : Original
Language : English
Service kind : Complete Main
Default : No
Forced : No

Text #1
ID : 4
Format : UTF-8
Codec ID : S_TEXT/UTF8
Codec ID/Info : UTF-8 Plain Text
Duration : 1 h 59 min
Bit rate : 1 b/s
Count of elements : 43
Stream size : 1.60 KiB (0%)
Title : Forced
Language : Russian
Default : Yes
Forced : Yes

Text #2
ID : 5
Format : UTF-8
Codec ID : S_TEXT/UTF8
Codec ID/Info : UTF-8 Plain Text
Duration : 1 h 59 min
Bit rate : 57 b/s
Count of elements : 1062
Stream size : 50.3 KiB (0%)
Title : Full
Language : Russian
Default : No
Forced : No

Text #3
ID : 6
Format : UTF-8
Codec ID : S_TEXT/UTF8
Codec ID/Info : UTF-8 Plain Text
Duration : 1 h 59 min
Bit rate : 55 b/s
Count of elements : 1058
Stream size : 48.7 KiB (0%)
Title : Full
Language : Ukrainian
Default : No
Forced : No

Text #4
ID : 7
Format : UTF-8
Codec ID : S_TEXT/UTF8
Codec ID/Info : UTF-8 Plain Text
Duration : 1 h 52 min
Bit rate : 40 b/s
Count of elements : 1283
Stream size : 33.6 KiB (0%)
Language : English
Default : No
Forced : No

Menu
00:00:00.000 : en:1
00:06:49.034 : en:2
00:13:21.634 : en:3
00:16:42.459 : en:4
00:27:09.919 : en:5
00:34:04.458 : en:6
00:41:04.543 : en:7
00:47:07.613 : en:8
00:54:16.333 : en:9
01:02:16.813 : en:10
01:11:17.727 : en:11
01:18:38.125 : en:12
01:25:18.942 : en:13
01:31:39.238 : en:14
01:40:09.330 : en:15
01:52:13.720 : en:16
Источник http://BlaTor.org

Трекер:  [ 30-Окт-2018 22:00 ]

  

Скачать .torrent

Размер .torrent файла 90 KB


Размер: 4.48 GB
Хэш (hash) релиза: 4ac8af1f7d98a2dc9c70ad684c0e693801f9f986
Подписка на обновления:

Торренты, похожие на Великий уравнитель 2 The Equalizer 2 скачать торрент

Форум Название Автор Размер S L Добавлен
Зарубежные фильмы 2016-2018 (Новинки зарубежного кино) ·%· Великий уравнитель 2 / The Equalizer 2 (2018) BDRemux 1080p от селезень | iTunes Galfimbul 2346521259821.85 GB 0 0 1542076854

05:40

13-Ноя-18

Зарубежные фильмы 2016-2018 (Новинки зарубежного кино) ·%· Великий уравнитель 2 / The Equalizer 2 (2018) HDRip от Kaztorrents | КПК | iTunes Galfimbul 482419386460 MB 0 0 1542067831

03:10

13-Ноя-18

Зарубежные фильмы 2016-2018 (Новинки зарубежного кино) ·%· Великий уравнитель 2 / The Equalizer 2 (2018) BDRip от MegaPeer | iTunes Galfimbul 22867956442.13 GB 0 0 1542043827

20:30

12-Ноя-18

Зарубежные фильмы 2016-2018 (Новинки зарубежного кино) ·%· Великий уравнитель 2 / The Equalizer 2 (2018) WEB-DLRip от Scarabey | iTunes Galfimbul 782731264746 MB 0 0 1541004806

19:53

31-Окт-18

Зарубежные фильмы 2016-2018 (Новинки зарубежного кино) ·%· Великий уравнитель 2 / The Equalizer 2 (2018) WEB-DLRip-AVC от Dalemake | iTunes Galfimbul 29734545812.77 GB 0 0 1540989110

15:31

31-Окт-18

Зарубежные фильмы 2016-2018 (Новинки зарубежного кино) ·%· Великий уравнитель 2 / The Equalizer 2 (2018) WEB-DLRip-AVC | iTunes Galfimbul 781834816746 MB 0 0 1540977020

12:10

31-Окт-18

Зарубежные фильмы 2016-2018 (Новинки зарубежного кино) ·%· Великий уравнитель 2 / The Equalizer 2 (2018) WEB-DLRip от Generalfilm | КПК | iTunes Galfimbul 483337201461 MB 0 0 1540975930

11:52

31-Окт-18

Зарубежные фильмы 2016-2018 (Новинки зарубежного кино) ·%· Великий уравнитель 2 / The Equalizer 2 (2018) WEB-DLRip-AVC от ExKinoRay | iTunes Galfimbul 24058439392.24 GB 0 0 1540957807

06:50

31-Окт-18

Зарубежные фильмы 2016-2018 (Новинки зарубежного кино) ·%· Великий уравнитель 2 / The Equalizer 2 (2018) WEB-DLRip от Dalemake | iTunes Galfimbul 23390437692.18 GB 0 0 1540936251

00:50

31-Окт-18

Зарубежные фильмы 2016-2018 (Новинки зарубежного кино) ·%· Великий уравнитель 2 / The Equalizer 2 (2018) WEB-DL 720p от селезень | iTunes Galfimbul 43541609144.06 GB 0 0 1540926279

22:04

30-Окт-18

Зарубежные фильмы 2016-2018 (Новинки зарубежного кино) ·%· Великий уравнитель 2 / The Equalizer 2 (2018) TS от Dalemake | L Galfimbul 15646085121.46 GB 0 0 1536229865

13:31

6-Сен-18

Еще никто не оставлял запись к записи скачать торрент Великий уравнитель 2 The Equalizer 2 . Будь первым!

!Обратная связь