Скачать через торрент Тайна магазина игрушек Tea Pets Фильм бесплатно в хорошем качестве torrent

Скачивайте на UnionPeer.org фильмы через торрент без регистрации. Новинки кино в хорошем качестве через торрент. На UnionPeer.org можно скачать через торрент фильмы 2014 и 2015 годов. Самые новые фильмы.

Скачать торрент Тайна магазина игрушек Tea Pets бесплатно через .torrent фильм мультфильм сериал

Статистика раздачи
Размер:  3.34 GB   |    Зарегистрирован:  22 дня   |    .torrent скачан:  133 раза   |   
Раздают:  1  
   
загрузка...
 
Автор Сообщение

Galfimbul

avatar Galfimbul


Тайна магазина игрушек /Tea Pets

Год выхода: 2017
Жанр: Мультфильм, семейный, фэнтези, приключения
Режиссер: Гэри Ван
Роли озвучивают: Ши Лэй, Юань Цзэюй, Цзи Гуаньлинь, Хун Хуан, Чжан Лэй, Янь Яньшэн, Ивонн Чжао

О фильме:
Робот Таймбот попадает на землю, после того, как его космический корабль потерпел крушение. Он попадает в магазин игрушек, где его обитатели, жили своей тихой и спокойной жизнью, играли, а по ночам пугали друг друга историями о некоем «Правителе Подземелья», который с помощью своих верных помощников, крыс Шмыгуна и Пискуна, похищает их друзей из соседних магазинов. В один из дней, пропадает их подружка Мэй, и игрушки, во главе с Таймботом убегают из магазина и отправляются в город на ее поиски. С этого и начинаются интересные, полные юмора и приключений путешествия маленьких героев под недоуменные взгляды городских жителей.



Страна: Китай
Студия: Light Chaser Animation Studios
Продолжительность: 01:37:33
Перевод: Профессиональный (полное дублирование) | iTunes

Файл
Качество: WEB-DL 1080p
Формат: MKV
Кодек: MPEG-4 AVC
Видео: 1920x804 (2,40:1), 24 fps, MPEG-4 AVC ~ 4509 Kbps avg, 0.122 bit/pixel
Аудио: AC3, 48 kHz, 6 ch, ~384.00 kbps avg | русский | iTunes

Субтитры: Отсутствуют
Общее
Уникальный идентификатор : 213079296826593544140540903803687472342 (0xA04D946FA7DE0DC62486DA13E4230CD6)
Полное имя : TEA_PETS (2017) WEB-DL 1080p-KAZTORKA.mkv
Формат : Matroska
Версия формата : Version 4 / Version 2
Размер файла : 3,34 Гбайт
Продолжительность : 1 ч. 37 м.
Общий поток : 4895 Кбит/сек
Название фильма : TEA_PETS (2017) WEB-DL 1080p-KAZTORKA
Дата кодирования : UTC 2018-11-19 19:58:59
Программа кодирования : mkvmerge v27.0.0 ('Metropolis') 64-bit
Библиотека кодирования : libebml v1.3.6 + libmatroska v1.4.9

Видео
Идентификатор : 1
Формат : AVC
Формат/Информация : Advanced Video Codec
Профиль формата : High@L4
Настройки формата : CABAC / 5 Ref Frames
Параметр CABAC формата : Да
Параметр RefFrames формата : 5 кадров
Параметр GOP формата : N=1
Идентификатор кодека : V_MPEG4/ISO/AVC
Продолжительность : 1 ч. 37 м.
Битрейт : 4509 Кбит/сек
Ширина : 1920 пикселей
Высота : 804 пикселя
Соотношение сторон : 2,40:1
Режим частоты кадров : Постоянный
Частота кадров : 24,000 кадра/сек
Цветовое пространство : YUV
Субдискретизация насыщенности : 4:2:0
Битовая глубина : 8 бит
Тип развёртки : Прогрессивная
Бит/(Пиксели*Кадры) : 0.122
Размер потока : 3,07 Гбайт (92%)
Заголовок : TEA_PETS (2017) WEB-DL 1080p-KAZTORKA
Язык : English
Default : Да
Forced : Нет
Цветовой диапазон : Limited
Основные цвета : BT.709
Характеристики трансфера : BT.709
Коэффициенты матрицы : BT.709

Аудио
Идентификатор : 2
Формат : AC-3
Формат/Информация : Audio Coding 3
Идентификатор кодека : A_AC3
Продолжительность : 1 ч. 37 м.
Вид битрейта : Постоянный
Битрейт : 384 Кбит/сек
Каналы : 6 каналов
Расположение каналов : Front: L C R, Side: L R, LFE
Частота : 48,0 КГц
Частота кадров : 31,250 кадров/сек (1536 SPF)
Битовая глубина : 16 бит
Метод сжатия : С потерями
Задержка видео : -42 мс.
Размер потока : 268 Мбайт (8%)
Заголовок : iTunes | TEA_PETS (2017) WEB-DL 1080p-KAZTORKA
Язык : Russian
Default : Да
Forced : Нет

Меню
00:00:00.000 : en:Глава 1
00:02:27.458 : en:Глава 2
00:09:17.333 : en:Глава 3
00:18:13.666 : en:Глава 4
00:26:38.207 : en:Глава 5
00:37:07.582 : en:Глава 6
00:45:30.290 : en:Глава 7
00:51:11.748 : en:Глава 8
00:57:19.539 : en:Глава 9
01:07:06.247 : en:Глава 10
01:13:12.247 : en:Глава 11
01:19:01.163 : en:Глава 12
01:28:43.371 : en:Глава 13
Источник http://BlaTor.org

Трекер:  [ 21-Ноя-2018 14:40 ]

  

Скачать .torrent

Размер .torrent файла 17 KB


Размер: 3.34 GB
Хэш (hash) релиза: 73256f6074b023ebcaf3e5cfc571dcfc87a5966c
Подписка на обновления:

Еще никто не оставлял запись к записи скачать торрент Тайна магазина игрушек Tea Pets . Будь первым!

!Обратная связь